<?xml version="1.0" standalone="no"?>
<!DOCTYPE svg PUBLIC "-//W3C//DTD SVG 1.1//EN" "http://www.w3.org/Graphics/SVG/1.1/DTD/svg11.dtd" >
<svg xmlns="http://www.w3.org/2000/svg">
<metadata>
<json>
<![CDATA[
{
	"fontFamily": "haruicons",
	"majorVersion": 1,
	"minorVersion": 0,
	"copyright": "HaruTheme",
	"fontURL": "https://harutheme.com/",
	"version": "Version 1.0",
	"fontId": "haruicons",
	"psName": "haruicons",
	"subFamily": "Regular",
	"fullName": "haruicons",
	"description": "Font generated by IcoMoon."
}
]]>
</json>
</metadata>
<defs>
<font id="haruicons" horiz-adv-x="1024">
<font-face units-per-em="1024" ascent="960" descent="-64" />
<missing-glyph horiz-adv-x="1024" />
<glyph unicode="&#x20;" horiz-adv-x="512" d="" />
<glyph unicode="&#xe900;" glyph-name="add-circle-outline" data-tags="add-circle-outline" d="M554.667 661.333h-85.333v-170.667h-170.667v-85.333h170.667v-170.667h85.333v170.667h170.667v85.333h-170.667v170.667zM512 874.667c-235.52 0-426.667-191.147-426.667-426.667s191.147-426.667 426.667-426.667 426.667 191.147 426.667 426.667-191.147 426.667-426.667 426.667zM512 106.667c-188.16 0-341.333 153.173-341.333 341.333s153.173 341.333 341.333 341.333 341.333-153.173 341.333-341.333-153.173-341.333-341.333-341.333z" />
<glyph unicode="&#xe901;" glyph-name="add-circle" data-tags="add-circle" d="M512 874.667c-235.52 0-426.667-191.147-426.667-426.667s191.147-426.667 426.667-426.667 426.667 191.147 426.667 426.667-191.147 426.667-426.667 426.667zM725.333 405.333h-170.667v-170.667h-85.333v170.667h-170.667v85.333h170.667v170.667h85.333v-170.667h170.667v-85.333z" />
<glyph unicode="&#xe902;" glyph-name="add" data-tags="add" d="M810.667 405.333h-256v-256h-85.333v256h-256v85.333h256v256h85.333v-256h256v-85.333z" />
<glyph unicode="&#xe903;" glyph-name="arrow-down-b" data-tags="arrow-down-b" d="M197.8 590.6l3.6-4.2 272-313c9.2-10.6 23-17.2 38.4-17.2s29.2 6.8 38.4 17.2l276.4 317.6c3.4 5 5.4 11 5.4 17.4 0 17.4-14.8 31.6-33.2 31.6v0h-573.6c-18.4 0-33.2-14.2-33.2-31.6 0-6.6 2.2-12.8 5.8-17.8z" />
<glyph unicode="&#xe904;" glyph-name="arrow-down" data-tags="arrow-down" d="M793.2 640l38.8-41.4-320-342.6-320 342.6 38.6 41.4 281.4-301z" />
<glyph unicode="&#xe905;" glyph-name="arrow-left-b" data-tags="arrow-left-b" d="M654.6 762.2l-4.2-3.6-313-272c-10.6-9.2-17.2-23-17.2-38.4s6.8-29.2 17.2-38.4l317.6-276.4c5-3.4 11-5.4 17.4-5.4 17.4 0 31.6 14.8 31.6 33.2v0 573.6c0 18.4-14.2 33.2-31.6 33.2-6.6 0-12.8-2.2-17.8-5.8z" />
<glyph unicode="&#xe906;" glyph-name="arrow-left" data-tags="arrow-left" d="M704 729.2l-41.4 38.8-342.6-320 342.6-320 41.4 38.6-301 281.4z" />
<glyph unicode="&#xe907;" glyph-name="arrow-right-b" data-tags="arrow-right-b" d="M369.4 133.8l4.2 3.6 313 272c10.6 9.2 17.2 23 17.2 38.4s-6.8 29.2-17.2 38.4l-317.6 276.4c-5 3.4-11 5.4-17.4 5.4-17.4 0-31.6-14.8-31.6-33.2v0-573.6c0-18.4 14.2-33.2 31.6-33.2 6.6 0 12.8 2.2 17.8 5.8z" />
<glyph unicode="&#xe908;" glyph-name="arrow-right" data-tags="arrow-right" d="M320 729.2l41.4 38.8 342.6-320-342.6-320-41.4 38.6 301 281.4z" />
<glyph unicode="&#xe909;" glyph-name="arrow-thin-down" data-tags="arrow-thin-down" d="M810.667 320l-60.16 60.16-195.84-195.413v689.92h-85.333v-689.92l-195.84 195.84-60.16-60.587 298.667-298.667 298.667 298.667z" />
<glyph unicode="&#xe90a;" glyph-name="arrow-thin-left" data-tags="arrow-thin-left" d="M384 149.333l60.16 60.16-195.413 195.84h689.92v85.333h-689.92l195.84 195.84-60.587 60.16-298.667-298.667 298.667-298.667z" />
<glyph unicode="&#xe90b;" glyph-name="arrow-thin-right" data-tags="arrow-thin-right" d="M640 746.667l-60.16-60.16 195.413-195.84h-689.92v-85.333h689.92l-195.84-195.84 60.587-60.16 298.667 298.667-298.667 298.667z" />
<glyph unicode="&#xe90c;" glyph-name="arrow-thin-up" data-tags="arrow-thin-up" d="M213.333 576l60.16-60.16 195.84 195.413v-689.92h85.333v689.92l195.84-195.84 60.16 60.587-298.667 298.667-298.667-298.667z" />
<glyph unicode="&#xe90d;" glyph-name="arrow-up-b" data-tags="arrow-up-b" d="M826.2 305.4l-3.6 4.2-272 313c-9.2 10.6-23 17.2-38.4 17.2s-29.2-6.8-38.4-17.2l-276.4-317.6c-3.4-5-5.4-11-5.4-17.4 0-17.4 14.8-31.6 33.2-31.6v0h573.6c18.4 0 33.2 14.2 33.2 31.6 0 6.6-2.2 12.8-5.8 17.8z" />
<glyph unicode="&#xe90e;" glyph-name="arrow-up" data-tags="arrow-up" d="M793.2 256l38.8 41.4-320 342.6-320-342.6 38.6-41.4 281.4 301z" />
<glyph unicode="&#xe90f;" glyph-name="bag" data-tags="bag" d="M768 704h-85.333c0 94.293-76.373 170.667-170.667 170.667s-170.667-76.373-170.667-170.667h-85.333c-46.933 0-85.333-38.4-85.333-85.333v-512c0-46.933 38.4-85.333 85.333-85.333h512c46.933 0 85.333 38.4 85.333 85.333v512c0 46.933-38.4 85.333-85.333 85.333zM512 789.333c46.933 0 85.333-38.4 85.333-85.333h-170.667c0 46.933 38.4 85.333 85.333 85.333zM768 106.667h-512v512h85.333v-85.333c0-23.467 19.2-42.667 42.667-42.667s42.667 19.2 42.667 42.667v85.333h170.667v-85.333c0-23.467 19.2-42.667 42.667-42.667s42.667 19.2 42.667 42.667v85.333h85.333v-512z" />
<glyph unicode="&#xe910;" glyph-name="calendar" data-tags="calendar" d="M853.333 832h-42.667v85.333h-85.333v-85.333h-426.667v85.333h-85.333v-85.333h-42.667c-46.933 0-85.333-38.4-85.333-85.333v-682.667c0-46.933 38.4-85.333 85.333-85.333h682.667c46.933 0 85.333 38.4 85.333 85.333v682.667c0 46.933-38.4 85.333-85.333 85.333zM853.333 64h-682.667v469.333h682.667v-469.333zM853.333 618.667h-682.667v128h682.667v-128z" />
<glyph unicode="&#xe911;" glyph-name="cart-limit" data-tags="cart-limit" d="M554.667 533.333h-85.333v85.333h85.333v-85.333zM554.667 704h-85.333v213.333h85.333v-213.333zM298.667 192c-46.933 0-84.907-38.4-84.907-85.333s37.973-85.333 84.907-85.333 85.333 38.4 85.333 85.333-38.4 85.333-85.333 85.333zM725.333 192c-46.933 0-84.907-38.4-84.907-85.333s37.973-85.333 84.907-85.333 85.333 38.4 85.333 85.333-38.4 85.333-85.333 85.333zM345.6 405.333h317.867c32 0 60.16 17.493 74.667 43.947l157.867 299.093-74.667 40.96-157.867-298.667h-299.52l-181.76 384h-139.52v-85.333h85.333l153.6-323.84-57.6-104.107c-31.147-57.173 9.813-126.72 74.667-126.72h512v85.333h-512l46.933 85.333z" />
<glyph unicode="&#xe912;" glyph-name="cart-plus" data-tags="cart-plus" d="M469.333 576h85.333v128h128v85.333h-128v128h-85.333v-128h-128v-85.333h128v-128zM298.667 192c-46.933 0-84.907-38.4-84.907-85.333s37.973-85.333 84.907-85.333 85.333 38.4 85.333 85.333-38.4 85.333-85.333 85.333zM725.333 192c-46.933 0-84.907-38.4-84.907-85.333s37.973-85.333 84.907-85.333 85.333 38.4 85.333 85.333-38.4 85.333-85.333 85.333zM345.6 405.333h317.867c32 0 60.16 17.493 74.667 43.947l164.693 299.093-74.24 40.96-165.12-298.667h-299.52l-181.76 384h-139.52v-85.333h85.333l153.6-323.84-57.6-104.107c-31.147-57.173 9.813-126.72 74.667-126.72h512v85.333h-512l46.933 85.333z" />
<glyph unicode="&#xe913;" glyph-name="cart" data-tags="cart" d="M663.467 405.333c32 0 60.16 17.493 74.667 43.947l152.747 276.907c15.787 28.16-4.693 63.147-37.12 63.147h-631.467l-40.107 85.333h-139.52v-85.333h85.333l153.6-323.84-57.6-104.107c-31.147-57.173 9.813-126.72 74.667-126.72h512v85.333h-512l46.933 85.333h317.867zM262.827 704h518.4l-117.76-213.333h-299.52l-101.12 213.333zM298.667 192c-46.933 0-84.907-38.4-84.907-85.333s37.973-85.333 84.907-85.333 85.333 38.4 85.333 85.333-38.4 85.333-85.333 85.333zM725.333 192c-46.933 0-84.907-38.4-84.907-85.333s37.973-85.333 84.907-85.333 85.333 38.4 85.333 85.333-38.4 85.333-85.333 85.333z" />
<glyph unicode="&#xe914;" glyph-name="chevron-down" data-tags="chevron-down" d="M316.16 593.493l195.84-195.413 195.84 195.413 60.16-60.16-256-256-256 256 60.16 60.16z" />
<glyph unicode="&#xe915;" glyph-name="chevron-left" data-tags="chevron-left" d="M657.493 252.16l-195.413 195.84 195.413 195.84-60.16 60.16-256-256 256-256 60.16 60.16z" />
<glyph unicode="&#xe916;" glyph-name="chevron-right" data-tags="chevron-right" d="M366.507 252.16l195.413 195.84-195.413 195.84 60.16 60.16 256-256-256-256-60.16 60.16z" />
<glyph unicode="&#xe917;" glyph-name="chevron-up" data-tags="chevron-up" d="M316.16 302.507l195.84 195.413 195.84-195.413 60.16 60.16-256 256-256-256 60.16-60.16z" />
<glyph unicode="&#xe918;" glyph-name="close-outline" data-tags="close-outline" d="M512 874.667c-235.947 0-426.667-190.72-426.667-426.667s190.72-426.667 426.667-426.667 426.667 190.72 426.667 426.667-190.72 426.667-426.667 426.667zM512 106.667c-188.16 0-341.333 153.173-341.333 341.333s153.173 341.333 341.333 341.333 341.333-153.173 341.333-341.333-153.173-341.333-341.333-341.333zM665.173 661.333l-153.173-153.173-153.173 153.173-60.16-60.16 153.173-153.173-153.173-153.173 60.16-60.16 153.173 153.173 153.173-153.173 60.16 60.16-153.173 153.173 153.173 153.173z" />
<glyph unicode="&#xe919;" glyph-name="close" data-tags="close" d="M810.667 686.507l-60.16 60.16-238.507-238.507-238.507 238.507-60.16-60.16 238.507-238.507-238.507-238.507 60.16-60.16 238.507 238.507 238.507-238.507 60.16 60.16-238.507 238.507 238.507 238.507z" />
<glyph unicode="&#xe91a;" glyph-name="comments" data-tags="comments" horiz-adv-x="1152" d="M1139.8 77.8c-1 0.8-45.2 48.4-75.8 109.8 55 54.2 88 122.2 88 196.4 0 160-153 292.2-352.4 315.8-62.8 115.2-211 196.2-383.6 196.2-229.8 0-416-143.2-416-320 0-74 33-142 88-196.4-30.6-61.4-74.6-109-75.4-109.8-12.6-13.4-16.2-33-8.8-50 7.2-17 24-28 42.4-28 107 0 193.4 40.4 250.4 77.6 18.2-4.2 36.8-7.4 56-9.6 63-115 211-196 383.6-196 41.6 0 81.6 4.8 119.6 13.6 57-37 143.2-77.6 250.4-77.6 18.4 0 35 11 42.4 28 7.2 17 3.8 36.6-8.8 50zM310.8 332l-26.4 6-22.8-14.8c-40.2-26.2-101-56.4-175.4-65 17.6 22.6 40.4 55.2 59 92.8l20.8 41.6-33 32.6c-31.6 31-69 82.4-69 150.8 0 141.2 158 256 352 256s352-114.8 352-256-158-256-352-256c-35.4 0-70.8 4-105.2 12zM890.4 131.2l-22.8 14.8-26.4-6.2c-34.4-8-69.8-12-105.2-12-130.2 0-244 51.8-304.8 128.6 222.6 6.4 400.8 146.8 400.8 319.6 0 19-2.6 37.4-6.6 55.4 150.8-29 262.6-128.8 262.6-247.4 0-68.4-37.4-119.8-69-150.8l-33-32.6 20.6-41.4c18.8-37.8 41.6-70.4 59-92.8-74.2 8.4-135 38.8-175.2 64.8z" />
<glyph unicode="&#xe91b;" glyph-name="heart-outline" data-tags="heart-outline" d="M704 832c-74.24 0-145.493-34.56-192-89.173-46.507 54.613-117.76 89.173-192 89.173-131.413 0-234.667-103.253-234.667-234.667 0-161.28 145.067-292.693 364.8-492.373l61.867-55.893 61.867 56.32c219.733 199.253 364.8 330.667 364.8 491.947 0 131.413-103.253 234.667-234.667 234.667zM516.267 168.533l-4.267-4.267-4.267 4.267c-203.093 183.893-337.067 305.493-337.067 428.8 0 85.333 64 149.333 149.333 149.333 65.707 0 129.707-42.24 152.32-100.693h79.787c22.187 58.453 86.187 100.693 151.893 100.693 85.333 0 149.333-64 149.333-149.333 0-123.307-133.973-244.907-337.067-428.8z" />
<glyph unicode="&#xe91c;" glyph-name="heart" data-tags="heart" d="M512 49.067l-61.867 56.32c-219.733 199.253-364.8 330.667-364.8 491.947 0 131.413 103.253 234.667 234.667 234.667 74.24 0 145.493-34.56 192-89.173 46.507 54.613 117.76 89.173 192 89.173 131.413 0 234.667-103.253 234.667-234.667 0-161.28-145.067-292.693-364.8-492.373l-61.867-55.893z" />
<glyph unicode="&#xe91d;" glyph-name="ios-arrow-back" data-tags="ios-arrow-back" d="M747.093 794.88l-75.947 75.52-421.973-422.4 422.4-422.4 75.52 75.52-346.88 346.88 346.88 346.88z" />
<glyph unicode="&#xe91e;" glyph-name="ios-arrow-forward" data-tags="ios-arrow-forward" d="M265.813 96.853l75.52-75.52 426.667 426.667-426.667 426.667-75.52-75.52 351.147-351.147z" />
<glyph unicode="&#xe91f;" glyph-name="ios-volume-high" data-tags="ios-volume-high" d="M748.2 704l-27.2-20.6c48.2-65.8 77-147.2 77-235.4s-28.8-169.6-77.2-235.4l27.2-20.6c52.6 71.4 83.8 160 83.8 256s-31 184.6-83.6 256zM640 256.4c40 53.6 64 119.8 64 191.6s-24 138-64 191.6l-27.2-20.2c35.8-48 57.2-107.2 57.2-171.4s-21.4-123.4-57.2-171.4l27.2-20.2zM546.2 320.2c27.4 35.8 43.8 79.8 43.8 127.8s-16.4 92-43.8 127.8l-27-19.6c23.2-30.2 37-67.6 37-108.2s-13.8-77.8-37-108.2l27-19.6zM307.8 528h-115.8v-160h115.8l140.2-112v384z" />
<glyph unicode="&#xe920;" glyph-name="ios-volume-low" data-tags="ios-volume-low" d="M499.8 528h-115.8v-160h115.8l140.2-112v384z" />
<glyph unicode="&#xe921;" glyph-name="play-circle-filled" data-tags="play-circle-filled" d="M512 874.667c-235.52 0-426.667-191.147-426.667-426.667s191.147-426.667 426.667-426.667 426.667 191.147 426.667 426.667-191.147 426.667-426.667 426.667zM426.667 256v384l256-192-256-192z" />
<glyph unicode="&#xe922;" glyph-name="play-circle" data-tags="play-circle" d="M512 874.667c-235.52 0-426.667-191.147-426.667-426.667s191.147-426.667 426.667-426.667 426.667 191.147 426.667 426.667-191.147 426.667-426.667 426.667zM512 106.667c-188.16 0-341.333 153.173-341.333 341.333s153.173 341.333 341.333 341.333 341.333-153.173 341.333-341.333-153.173-341.333-341.333-341.333zM405.333 256l298.667 192-298.667 192v-384z" />
<glyph unicode="&#xe923;" glyph-name="play-outline" data-tags="play-outline" d="M288 710.2l419.6-262.2-419.6-262.2v524.4zM256 768v-640l512 320-512 320z" />
<glyph unicode="&#xe924;" glyph-name="play-radius" data-tags="play-radius" d="M810.4 494.2l-556.8 331.4c-6.8 4-13.8 6.4-21.8 6.4-21.8 0-39.6-18-39.6-40h-0.2v-688h0.2c0-22 17.8-40 39.6-40 8.2 0 15 2.8 22.4 6.8l556.2 331c13.2 11 21.6 27.6 21.6 46.2s-8.4 35-21.6 46.2z" />
<glyph unicode="&#xe925;" glyph-name="play" data-tags="play" d="M256 768v-640l512 320-512 320z" />
<glyph unicode="&#xe926;" glyph-name="random" data-tags="random" d="M1010 160l-158.4-145.8c-30.2-30.2-83.6-8.8-83.6 34v80h-62c-6.6 0-13 2.8-17.6 7.8l-179.6 194.4 76.2 82.6 159.6-172.6h23.4v96c0 42.8 53.4 64.2 83.6 34l158.4-142c18.6-19.2 18.6-49.6 0-68.4zM24 656h183.6l159.6-172.6 76.2 82.6-179.6 194.4c-4.6 5-11 7.8-17.6 7.8h-222.2c-13.2 0-24-10.8-24-24v-64c0-13.4 10.8-24.2 24-24.2zM1010 739.8l-158.4 142c-30.2 30.2-83.6 8.8-83.6-33.8v-80h-62c-6.6 0-13-2.8-17.6-7.8l-480.8-520.2h-183.6c-13.2 0-24-10.8-24-24v-64c0-13.2 10.8-24 24-24h222c6.6 0 13 2.8 17.6 7.8l480.8 520.2h23.6v-96c0-42.8 53.4-64.2 83.6-34l158.4 146c18.6 18.8 18.6 49.2 0 67.8z" />
<glyph unicode="&#xe927;" glyph-name="remove-circle-outline" data-tags="remove-circle-outline" d="M298.667 490.667v-85.333h426.667v85.333h-426.667zM512 874.667c-235.52 0-426.667-191.147-426.667-426.667s191.147-426.667 426.667-426.667 426.667 191.147 426.667 426.667-191.147 426.667-426.667 426.667zM512 106.667c-188.16 0-341.333 153.173-341.333 341.333s153.173 341.333 341.333 341.333 341.333-153.173 341.333-341.333-153.173-341.333-341.333-341.333z" />
<glyph unicode="&#xe928;" glyph-name="remove-circle" data-tags="remove-circle" d="M512 874.667c-235.52 0-426.667-191.147-426.667-426.667s191.147-426.667 426.667-426.667 426.667 191.147 426.667 426.667-191.147 426.667-426.667 426.667zM725.333 405.333h-426.667v85.333h426.667v-85.333z" />
<glyph unicode="&#xe929;" glyph-name="remove" data-tags="remove" d="M810.667 405.333h-597.333v85.333h597.333v-85.333z" />
<glyph unicode="&#xe92a;" glyph-name="search" data-tags="search" d="M661.333 362.667h-33.707l-11.947 11.52c41.813 48.64 66.987 111.787 66.987 180.48 0 153.173-124.16 277.333-277.333 277.333s-277.333-124.16-277.333-277.333 124.16-277.333 277.333-277.333c68.693 0 131.84 25.173 180.48 66.987l11.52-11.947v-33.707l213.333-212.907 63.573 63.573-212.907 213.333zM405.333 362.667c-106.24 0-192 85.76-192 192s85.76 192 192 192 192-85.76 192-192-85.76-192-192-192z" />
<glyph unicode="&#xe92b;" glyph-name="star-outline" data-tags="star-outline" d="M938.667 565.76l-306.773 26.453-119.893 282.453-119.893-282.88-306.773-26.027 232.96-201.813-69.973-299.947 263.68 159.147 263.68-159.147-69.547 299.947 232.533 201.813zM512 302.933l-160.427-96.853 42.667 182.613-141.653 122.88 186.88 16.213 72.533 171.947 72.96-172.373 186.88-16.213-141.653-122.88 42.667-182.613-160.853 97.28z" />
<glyph unicode="&#xe92c;" glyph-name="star" data-tags="star" d="M512 223.147l263.68-159.147-69.973 299.947 232.96 201.813-306.773 26.027-119.893 282.88-119.893-282.88-306.773-26.027 232.96-201.813-69.973-299.947 263.68 159.147z" />
<glyph unicode="&#xe92d;" glyph-name="sync-alt" data-tags="sync-alt" d="M316.16 387.84l-60.16 60.16-170.667-170.667 170.667-170.667 60.16 60.16-67.413 67.84h647.253v85.333h-647.253zM707.84 508.16l60.16-60.16 170.667 170.667-170.667 170.667-60.16-60.16 67.413-67.84h-647.253v-85.333h647.253z" />
<glyph unicode="&#xe92e;" glyph-name="volume-high" data-tags="volume-high" d="M462 144.4v607l-189.8-175.4h-208.2v-256h208.2zM574.2 248.6c41 55.8 65.6 124.6 65.6 199.4s-24.6 143.6-65.6 199.4l-40.8-30.6c34.8-47.2 55.6-105.4 55.6-168.8 0-63.2-20.8-121.6-55.6-168.6l40.8-30.8zM707.4 156.6c60 81.4 96 182.2 96 291.4s-36 209.8-96 291.4l-40.8-30.6c53.8-72.8 86-163 86-260.8s-32.2-187.8-86-260.6l40.8-30.8zM793.4 801.2c72.8-98.6 115.8-221 115.8-353.2s-43-254.4-115.8-353.2l41-30.8c78.8 107.2 125.6 240 125.6 384s-46.8 276.8-125.6 384l-41-30.8z" />
<glyph unicode="&#xe92f;" glyph-name="volume-low" data-tags="volume-low" d="M622 144.6v606.6l-189.6-175.2h-208.4v-256h208.4zM734.4 248.8c41 55.6 65.6 124.6 65.6 199.2 0 74.8-24.6 143.6-65.6 199.2l-40.8-30.6c34.8-47.2 55.6-105.4 55.6-168.6s-20.8-121.4-55.6-168.6l40.8-30.6z" />
<glyph unicode="&#xe930;" glyph-name="volume-medium" data-tags="volume-medium" d="M540 144.6v606.6l-189.4-175.2h-208.6v-256h208.6zM652.6 248.8c41 55.6 65.6 124.6 65.6 199.2 0 74.8-24.6 143.6-65.6 199.2l-40.8-30.6c34.8-47.2 55.6-105.4 55.6-168.6s-20.8-121.4-55.6-168.6l40.8-30.6zM785.6 156.8c60 81.4 96 182 96 291.2s-36 209.8-96 291.2l-40.8-30.6c53.8-72.8 86-162.8 86-260.6s-32.2-187.6-86-260.6l40.8-30.6z" />
<glyph unicode="&#xe931;" glyph-name="volume-off" data-tags="volume-off" d="M185.173 834.987l-60.16-60.16 186.027-186.027-12.373-12.8h-170.667v-256h170.667l213.333-213.333v281.173l178.347-178.347c-27.733-20.907-58.88-37.547-93.013-47.36v-87.893c57.173 12.8 109.653 39.253 154.027 74.667l87.467-87.467 60.16 60.16-713.813 713.387zM426.667 312.747l-92.587 92.587h-120.747v85.333h120.747l37.547 37.547 55.040-55.040v-160.427zM810.667 448c0-34.987-6.4-68.693-17.493-99.84l65.28-65.28c23.893 49.92 37.547 105.813 37.547 165.12 0 182.613-127.573 335.36-298.667 374.187v-87.893c123.307-36.693 213.333-151.040 213.333-286.293zM512 789.333l-80.213-80.213 80.213-80.213zM704 448c0 75.52-43.52 140.373-106.667 171.947v-76.373l105.813-105.813c0.427 3.413 0.853 6.827 0.853 10.24z" />
<glyph unicode="&#xe932;" glyph-name="volume-up" data-tags="volume-up" d="M128 576v-256h170.667l213.333-213.333v682.667l-213.333-213.333h-170.667zM426.667 583.253v-270.507l-92.587 92.587h-120.747v85.333h120.747l92.587 92.587zM704 448c0 75.52-43.52 140.373-106.667 171.947v-343.467c63.147 31.147 106.667 96 106.667 171.52zM597.333 822.187v-87.893c123.307-36.693 213.333-151.040 213.333-286.293s-90.027-249.6-213.333-286.293v-87.893c171.093 38.827 298.667 191.573 298.667 374.187s-127.573 335.36-298.667 374.187z" />
<glyph unicode="&#xe933;" glyph-name="grid-view" data-tags="grid-view" d="M160 768c0 17.673 14.327 32 32 32h256c17.673 0 32-14.327 32-32v-256c0-17.673-14.327-32-32-32h-256c-17.673 0-32 14.327-32 32v256zM224 736v-192h192v192h-192zM544 768c0 17.673 14.325 32 32 32h256c17.675 0 32-14.327 32-32v-256c0-17.673-14.325-32-32-32h-256c-17.675 0-32 14.327-32 32v256zM608 736v-192h192v192h-192zM160 384c0 17.675 14.327 32 32 32h256c17.673 0 32-14.325 32-32v-256c0-17.675-14.327-32-32-32h-256c-17.673 0-32 14.325-32 32v256zM224 352v-192h192v192h-192zM544 384c0 17.675 14.325 32 32 32h256c17.675 0 32-14.325 32-32v-256c0-17.675-14.325-32-32-32h-256c-17.675 0-32 14.325-32 32v256zM608 352v-192h192v192h-192z" />
<glyph unicode="&#xe934;" glyph-name="list-view" data-tags="list-view" d="M128 448c0 17.673 14.327 32 32 32h704c17.675 0 32-14.327 32-32s-14.325-32-32-32h-704c-17.673 0-32 14.327-32 32zM128 704c0 17.673 14.327 32 32 32h704c17.675 0 32-14.327 32-32s-14.325-32-32-32h-704c-17.673 0-32 14.327-32 32zM128 192c0 17.675 14.327 32 32 32h704c17.675 0 32-14.325 32-32s-14.325-32-32-32h-704c-17.673 0-32 14.325-32 32z" />
<glyph unicode="&#xe935;" glyph-name="article" data-tags="article" d="M810.667 746.667v-597.333h-597.333v597.333h597.333zM810.667 832h-597.333c-46.933 0-85.333-38.4-85.333-85.333v-597.333c0-46.933 38.4-85.333 85.333-85.333h597.333c46.933 0 85.333 38.4 85.333 85.333v597.333c0 46.933-38.4 85.333-85.333 85.333v0zM597.333 234.667h-298.667v85.333h298.667v-85.333zM725.333 405.333h-426.667v85.333h426.667v-85.333zM725.333 576h-426.667v85.333h426.667v-85.333z" />
<glyph unicode="&#xe936;" glyph-name="description" data-tags="description" d="M341.333 277.333h341.333v-85.333h-341.333zM341.333 448h341.333v-85.333h-341.333zM597.333 874.667h-341.333c-46.933 0-85.333-38.4-85.333-85.333v-682.667c0-46.933 37.973-85.333 84.907-85.333h512.427c46.933 0 85.333 38.4 85.333 85.333v512l-256 256zM768 106.667h-512v682.667h298.667v-213.333h213.333v-469.333z" />
<glyph unicode="&#xe937;" glyph-name="autorenew" data-tags="autorenew" d="M512 704v-128l170.667 170.667-170.667 170.667v-128c-188.587 0-341.333-152.747-341.333-341.333 0-66.987 19.627-129.28 52.907-181.76l62.293 62.293c-19.2 35.413-29.867 76.373-29.867 119.467 0 141.227 114.773 256 256 256zM800.427 629.76l-62.293-62.293c18.773-35.84 29.867-76.373 29.867-119.467 0-141.227-114.773-256-256-256v128l-170.667-170.667 170.667-170.667v128c188.587 0 341.333 152.747 341.333 341.333 0 66.987-19.627 129.28-52.907 181.76z" />
<glyph unicode="&#xe938;" glyph-name="error-outline" data-tags="error-outline" d="M469.333 320h85.333v-85.333h-85.333v85.333zM469.333 661.333h85.333v-256h-85.333v256zM511.573 874.667c-235.52 0-426.24-191.147-426.24-426.667s190.72-426.667 426.24-426.667c235.947 0 427.093 191.147 427.093 426.667s-191.147 426.667-427.093 426.667zM512 106.667c-188.587 0-341.333 152.747-341.333 341.333s152.747 341.333 341.333 341.333 341.333-152.747 341.333-341.333-152.747-341.333-341.333-341.333z" />
<glyph unicode="&#xe939;" glyph-name="error" data-tags="error" d="M512 874.667c-235.52 0-426.667-191.147-426.667-426.667s191.147-426.667 426.667-426.667 426.667 191.147 426.667 426.667-191.147 426.667-426.667 426.667zM554.667 234.667h-85.333v85.333h85.333v-85.333zM554.667 405.333h-85.333v256h85.333v-256z" />
<glyph unicode="&#xe93a;" glyph-name="cancel" data-tags="cancel" d="M512 874.667c-235.947 0-426.667-190.72-426.667-426.667s190.72-426.667 426.667-426.667 426.667 190.72 426.667 426.667-190.72 426.667-426.667 426.667zM512 106.667c-188.16 0-341.333 153.173-341.333 341.333s153.173 341.333 341.333 341.333 341.333-153.173 341.333-341.333-153.173-341.333-341.333-341.333zM665.173 661.333l-153.173-153.173-153.173 153.173-60.16-60.16 153.173-153.173-153.173-153.173 60.16-60.16 153.173 153.173 153.173-153.173 60.16 60.16-153.173 153.173 153.173 153.173z" />
<glyph unicode="&#xe93b;" glyph-name="highlight-off" data-tags="highlight-off" d="M622.507 618.667l-110.507-110.507-110.507 110.507-60.16-60.16 110.507-110.507-110.507-110.507 60.16-60.16 110.507 110.507 110.507-110.507 60.16 60.16-110.507 110.507 110.507 110.507-60.16 60.16zM512 874.667c-235.947 0-426.667-190.72-426.667-426.667s190.72-426.667 426.667-426.667 426.667 190.72 426.667 426.667-190.72 426.667-426.667 426.667zM512 106.667c-188.16 0-341.333 153.173-341.333 341.333s153.173 341.333 341.333 341.333 341.333-153.173 341.333-341.333-153.173-341.333-341.333-341.333z" />
<glyph unicode="&#xe93c;" glyph-name="check-box" data-tags="check-box" d="M810.667 832h-597.333c-46.933 0-85.333-38.4-85.333-85.333v-597.333c0-46.933 38.4-85.333 85.333-85.333h597.333c46.933 0 85.333 38.4 85.333 85.333v597.333c0 46.933-38.4 85.333-85.333 85.333zM810.667 149.333h-597.333v597.333h597.333v-597.333zM767.573 576l-60.16 60.587-281.173-281.173-110.080 109.653-60.587-60.16 170.667-170.24z" />
<glyph unicode="&#xe93d;" glyph-name="check-circle-outline" data-tags="check-circle-outline" d="M512 874.667c-235.52 0-426.667-191.147-426.667-426.667s191.147-426.667 426.667-426.667 426.667 191.147 426.667 426.667-191.147 426.667-426.667 426.667zM512 106.667c-188.16 0-341.333 153.173-341.333 341.333s153.173 341.333 341.333 341.333 341.333-153.173 341.333-341.333-153.173-341.333-341.333-341.333zM707.84 636.587l-281.173-281.173-110.507 110.080-60.16-60.16 170.667-170.667 341.333 341.333z" />
<glyph unicode="&#xe93e;" glyph-name="check" data-tags="check" d="M384 270.080l-177.92 177.92-60.587-60.16 238.507-238.507 512 512-60.16 60.16-451.84-451.413z" />
<glyph unicode="&#xe93f;" glyph-name="credit-card" data-tags="credit-card" d="M853.333 789.333h-682.667c-47.36 0-84.907-37.973-84.907-85.333l-0.427-512c0-47.36 37.973-85.333 85.333-85.333h682.667c47.36 0 85.333 37.973 85.333 85.333v512c0 47.36-37.973 85.333-85.333 85.333zM853.333 192h-682.667v256h682.667v-256zM853.333 618.667h-682.667v85.333h682.667v-85.333z" />
<glyph unicode="&#xe940;" glyph-name="menu" data-tags="menu" d="M128 192h768v85.333h-768v-85.333zM128 405.333h768v85.333h-768v-85.333zM128 704v-85.333h768v85.333h-768z" />
<glyph unicode="&#xe941;" glyph-name="magnify" data-tags="magnify" d="M464 804.571c-170.419 0-308.571-138.152-308.571-308.571s138.152-308.571 308.571-308.571c170.419 0 308.571 138.152 308.571 308.571s-138.152 308.571-308.571 308.571zM100.571 496c0 200.716 162.713 363.429 363.429 363.429s363.429-162.713 363.429-363.429c0-200.715-162.714-363.429-363.429-363.429-200.716 0-363.429 162.714-363.429 363.429zM682.178 277.771c10.712 10.712 28.076 10.712 38.788 0l194.403-194.403c10.712-10.712 10.712-28.080 0-38.791s-28.080-10.712-38.791 0l-194.399 194.403c-10.712 10.712-10.712 28.080 0 38.791z" />
<glyph unicode="&#xe942;" glyph-name="shop-bag" data-tags="shop-bag" d="M176.762 749.714c-1.174 0-3.047-1.123-3.047-3.657v-559.543c0-2.534 1.874-3.657 3.047-3.657h670.478c1.174 0 3.046 1.123 3.046 3.657v559.543c0 2.534-1.872 3.657-3.046 3.657h-670.478zM118.857 746.057c0 31.802 25.415 58.514 57.905 58.514h670.478c32.486 0 57.904-26.713 57.904-58.514v-559.543c0-31.803-25.417-58.514-57.904-58.514h-670.478c-32.489 0-57.905 26.712-57.905 58.514v559.543zM118.857 667.429c0 15.148 12.28 27.429 27.429 27.429h731.429c15.148 0 27.429-12.28 27.429-27.429s-12.281-27.429-27.429-27.429h-731.429c-15.148 0-27.429 12.28-27.429 27.429zM365.714 548.571c15.148 0 27.429-12.281 27.429-27.429 0-31.525 12.522-61.755 34.812-84.045s52.52-34.812 84.045-34.812c31.525 0 61.755 12.522 84.045 34.812s34.812 52.52 34.812 84.045c0 15.148 12.281 27.429 27.429 27.429s27.429-12.281 27.429-27.429c0-46.073-18.3-90.258-50.878-122.836s-76.763-50.878-122.836-50.878c-46.073 0-90.258 18.3-122.836 50.878-32.576 32.578-50.878 76.763-50.878 122.836 0 15.148 12.28 27.429 27.429 27.429z" />
<glyph unicode="&#xe943;" glyph-name="funnel" data-tags="funnel" d="M59.429 448c0 20.198 16.374 36.571 36.571 36.571h512c20.198 0 36.571-16.373 36.571-36.571s-16.373-36.571-36.571-36.571h-512c-20.198 0-36.571 16.373-36.571 36.571zM59.429 676.573c0 20.198 16.374 36.571 36.571 36.571h832c20.198 0 36.571-16.373 36.571-36.571s-16.373-36.571-36.571-36.571h-832c-20.198 0-36.571 16.374-36.571 36.571zM59.429 219.432c0 20.195 16.374 36.571 36.571 36.571h832c20.198 0 36.571-16.377 36.571-36.571 0-20.198-16.373-36.571-36.571-36.571h-832c-20.198 0-36.571 16.373-36.571 36.571z" />
<glyph unicode="&#xe944;" glyph-name="arrow-right-l" data-tags="arrow-right-l" horiz-adv-x="1536" d="M1525.836 480.627l2.632-3.069 1.040-1.435c0.613-0.883 1.18-1.788 1.707-2.715 1.52-2.658 2.716-5.534 3.532-8.567 0.344-1.276 0.616-2.557 0.819-3.841l0.28-2.223 0.161-3.027-0.085-2.934-0.19-2.019-0.169-1.165c-0.199-1.289-0.471-2.57-0.816-3.842-0.716-2.666-1.725-5.208-2.991-7.594l-1.064-1.871-2.106-3.102-1.827-2.214-2.016-2.103-3.068-2.631-1.436-1.041c-1.048-0.726-2.127-1.391-3.236-1.997l-1.103-0.576c-199.661-100.714-349.451-250.504-451.99-452.045-9.159-18.002-31.177-25.171-49.179-16.012s-25.171 31.177-16.012 49.179c88.184 173.328 209.719 311.484 365.143 414.979l-1327.291-0.020c-20.198 0-36.571 16.374-36.571 36.571 0 19.28 14.919 35.075 33.842 36.471l2.729 0.1 1327.272-0.007c-155.416 103.494-276.944 241.646-365.125 414.967-9.159 18.002-1.99 40.020 16.012 49.179s40.020 1.99 49.179-16.012c100.64-197.809 246.797-345.766 440.949-446.4l11.687-5.972 1.871-1.064 3.102-2.106 2.214-1.827 2.103-2.016z" />
<glyph unicode="&#xe945;" glyph-name="arrow-left-l" data-tags="arrow-left-l" horiz-adv-x="1536" d="M10.164 422.687l-2.632 3.069-1.114 1.543c-0.8 1.163-1.523 2.363-2.175 3.597-1.264 2.373-2.273 4.915-2.99 7.577-0.344 1.276-0.616 2.557-0.819 3.841l-0.406 4.087 0.023 3.65 0.219 2.467 0.169 1.165c0.199 1.289 0.471 2.57 0.816 3.842 0.587 2.188 1.372 4.292 2.335 6.295l1.716 3.154 1.751 2.634 1.679 2.125 2.524 2.675 3.068 2.631 1.436 1.041 1.823 1.183 2.516 1.391c199.661 100.714 349.451 250.504 451.99 452.045 9.159 18.002 31.177 25.171 49.179 16.012s25.171-31.177 16.012-49.179c-88.181-173.321-209.709-311.473-365.125-414.967l1327.272 0.007c20.198 0 36.571-16.374 36.571-36.571 0-19.28-14.919-35.075-33.842-36.471l-2.729-0.1-1327.291 0.020c155.424-103.495 276.959-241.651 365.143-414.979 9.159-18.002 1.99-40.020-16.012-49.179s-40.020-1.99-49.179 16.012c-100.64 197.809-246.797 345.766-440.949 446.4l-11.796 6.030-1.815 1.038-2.566 1.714-2.125 1.679-2.675 2.524z" />
<glyph unicode="&#xe946;" glyph-name="quote" data-tags="quote" horiz-adv-x="1385" d="M271.059 412.515c70.274 0 135.529 25.347 185.726 70.969-60.235-192.632-190.746-349.78-391.53-522.138l25.098-25.347c281.097 228.12 451.765 476.515 451.765 750.257 0 152.079-120.471 273.743-271.059 273.743s-271.059-121.664-271.059-273.743c0-152.079 120.471-273.742 271.059-273.742zM1114.353 412.515c70.274 0 135.529 25.347 180.706 70.969-55.215-192.632-185.726-349.78-386.509-522.138l25.097-25.347c281.097 228.12 451.765 476.515 451.765 750.257 0 152.079-120.471 273.743-271.059 273.743s-271.059-121.663-271.059-273.743c0-152.079 120.471-273.742 271.059-273.742z" />
<glyph unicode="&#xe947;" glyph-name="madd" data-tags="madd" d="M760.9 410.837l-207.484-0.004-0.009-207.488c0.009-22.089-17.903-40-39.996-39.996-11.042-0.004-21.047 4.476-28.284 11.712s-11.716 17.242-11.712 28.284l-0.004 207.488-207.485 0.004c-11.043-0.004-21.047 4.476-28.284 11.712s-11.717 17.242-11.712 28.284c-0.006 22.093 17.904 40.004 39.996 39.996l207.485 0.009 0.004 207.485c-0.004 22.092 17.907 40.001 39.996 39.996 22.093 0.006 40.004-17.904 39.996-39.996l0.009-207.485 207.484-0.009c22.093 0.009 40.004-17.903 39.996-39.996 0.009-22.089-17.903-40-39.996-39.996zM1024 448.004c0 136.761-53.261 265.338-149.961 362.040-96.704 96.702-225.28 149.962-362.039 149.962s-265.336-53.26-362.039-149.962c-96.702-96.702-149.962-225.28-149.962-362.040 0-136.755 53.26-265.335 149.962-362.035 66.203-66.206 149.023-112.939 239.505-135.151 21.456-5.274 43.119 7.846 48.384 29.299 5.269 21.457-7.859 43.123-29.308 48.388-76.285 18.731-146.144 58.163-202.012 114.031-168.435 168.435-168.435 442.505 0 610.94s442.507 168.435 610.942 0c168.435-168.435 168.435-442.505 0-610.94-60.233-60.233-136.768-100.945-221.342-117.751-21.666-4.297-35.742-25.357-31.441-47.027 4.305-21.662 25.357-35.742 47.031-31.437 100.143 19.895 190.857 68.186 262.319 139.648 96.7 96.7 149.961 225.28 149.961 362.035z" />
<glyph unicode="&#xe948;" glyph-name="mplay" data-tags="mplay" d="M512 960c-136.758 0-265.336-53.258-362.039-149.961s-149.961-225.281-149.961-362.039c0-136.759 53.258-265.335 149.961-362.039s225.281-149.961 362.039-149.961c93.623 0 185.233 25.515 264.922 73.788 18.897 11.447 24.939 36.041 13.491 54.929-11.443 18.901-36.045 24.939-54.938 13.495-67.187-40.695-144.469-62.212-223.475-62.212-238.203 0-432 193.796-432 432s193.797 432 432 432c238.204 0 432-193.797 432-432 0-85.18-25.327-168.085-73.25-239.774-12.279-18.359-7.343-43.204 11.025-55.484 18.359-12.275 43.2-7.343 55.484 11.025 56.742 84.881 86.741 183.168 86.741 284.233 0 136.758-53.257 265.336-149.961 362.039s-225.28 149.961-362.039 149.961zM378.752 172.766c-29.203 12.147-48.070 40.384-48.070 71.945v43.968c0 22.093 17.906 40.009 40 40.009s40-17.916 40-40.009v-39.42l265.559 179.17c7.578 7.531 11.75 17.57 11.75 28.258s-4.173 20.727-11.75 28.267l-265.559 179.163v-167.43c0-42.539-33.383-77.436-75.326-79.863 1.091-0.090 2.196-0.137 3.31-0.137h-7.984c1.569 0 3.127 0.047 4.674 0.137-20.545 1.681-36.69 18.884-36.69 39.863 0 22.093 17.906 40 40 40h-7.984v171.984c0 31.555 18.867 59.797 48.070 71.945 29.321 12.195 62.796 5.625 85.299-16.742l268.595-182.188c22.797-22.664 35.354-52.851 35.354-85s-12.557-62.336-35.354-85.001l-268.595-182.187c-14.985-14.899-34.854-22.788-55.111-22.788-10.156 0-20.398 1.984-30.188 6.054z" />
</font>
</defs>
</svg>
